Cancion Mixteca Chords


Cancion_mixteca Historia_de_un_amor Misguided Only_gets_better Sabor_a_mi Someplace_far_away_from_here Wishin_for_rain Talking to the river - All Lyrics. The problem is that either of two different chords sounds fine in many places, and it appears that either one will work. En diciembre de 1934, viajaron a la capital de México para presentarse en la ceremonia de toma de posesión de el presidente Lázaro Cárdenas, quien posteriormente recomendó que fueran. She's Leaving the Bank. Consentida. Cancion Mixteca Chords by Ry Cooder. Baby What You Want Me to Do; 15. Midi download - midi piano performances. Conozco a los Dos. Quique Escamilla performed Cancion Mixteca at the Folk Alliance International Conference in Kansas City, Missourri-Mexican-Canadian musician Quique Escamilla just took home the Juno Award for World Music Album of the Year for 500 Years of Night, and he's highlighting the track "Canción Mixteca" with a Pinball Sessions performance video. The other side of crazy 6. El ritmo de Have you ever seen the Rain de la Creedence es muy sencillo. Print and download in PDF or MIDI Canción mixteca. Cinematic Piano. La Llorona #7. Los Lobos, When Liberty Burns, Ema, White Lie Winners at Miami 2020. I know the tab part is not 100%, but sounds pretty ok'ish, think of it as a base to start on, or to leave out. La Negra View credits, reviews, tracks and shop for the 1995 CD release of Cancion Del Mariachi on Discogs. Most Conjunto and Norteño music uses the following chord progression: I - V - IV (commonly referred to as 1ra, 2da, 3ra) Two other chord progressions often used in Conjunto and Norteño music for boleros are:. Here is the MIDI to m4a (AAC) version of the arrangement: Cancion Mixteca Tim just had repeated B's in the bass of his version for the first three measures, and just the skeleton of the G major chords. Arriving at a time of socio-political tumult in America, George Winston’s Restless Wind stirs up a storm of unbridled emotions. Cooder, Ry - Easy Guitar Chords Designed for guitarists interested in playing Ry Cooder's songs using simple chords and chord changes; includes lyrics, details of tunings, biography and. This sold-out performance was Mastodon's first show at the legendary Brixton venue. Also recorded by Irish singer James Kilbane, Daniel O'Donnell with Susan Boyle as a duet, Tommy Flemming, Moira Crawley and Patrick Feeney. 126 times played , Duration - 3 minutes & 30 seconds. Houston in Two Seconds. #N#search engine by freefind. The Eyes Of Texas/Deep In The Heart Of Texas La Rubia Y La Morena -Canción-Polka (The Blonde And The Brunette) La Rubia Y La Morena -Canción-Polka (The Blonde And The Brunette. y como la luna, la brisa y la espuma. Apr 01, 2017. Tabs & Chords. Cielito Lindo. The most authentic and useful solo guitar arrangements on the web. Guitar, guitar pro, bass, drum tabs and chords with online tab player. Not your average fake book! Great for musicians, camps, teachers or for singing with family and friends. La Negra View credits, reviews, tracks and shop for the 1995 CD release of Cancion Del Mariachi on Discogs. Play all Antonio Aguilar songs for Guitar at E-Chords. “Cancion Mixteca,” which appears in Paris, Texas during a nostalgic montage, is a lament for Southern Mexico, composed a hundred years ago by a homesick José López Alvarez. Karaoke Profesional. sica la mu or tales, vio a os inm volBoler pre que en durante m tede sie conti nen s de la n uestro das, ante ca eca usi l tres d n de la m europea, e inv asio ican ay iem po amer uen t norte reinó por b ades d bolero s las socie s, aqui una en toda eracana n am os cie latino acion de l e jamás il u recop s boleros q mejo re án. Cancion Mixteca Chords by Antonio Aguilar learn how to play chords diagrams Cancion Mixteca chords by Antonio Aguilar with chords drawings, easy version, 12 key variations and much more. La Cumbia del Mole #14. "I had to decide if I wanted to be a singer or an actor," Harry Dean Stanton once said. Learn the full song lyrics at MetroLyrics. Dark Was The Night. Houston in Two Seconds 7. Al verme tan solo y triste, DO cual hoja al viento, SOL quisiera llorar, RE7 SOL quisiera morir, de sentimiento. Guitar, guitar pro, bass, drum tabs and chords with online tab player. tabs Cancion mixteca ver. Midnight Special. Canción Mixteca. He added the lyrics in 1915. 204 Madera St. Wasted Days and Wasted Nights; 14. Tim Sparks Maximo Ramo Ortiz - Sandunga ,Arr. Los Aguacates. Chords Ry Cooder Album: Borderline. The Chieftains song lyrics collection. Like a worn out record with a mis-punched spindle hole. chords Cancion mixteca ver. "Cancion Mixteca" is a Mexican folk song written by Oaxacan composer José López Alavez in 1912. Ry Cooder - Chan Chan. 4:15 Listen Now $1. y como la luna, la brisa y la espuma. Sendung 26. Aug 1, 2014 - Explore garywalker01's board "Ry Cooder", followed by 1408 people on Pinterest. Just your run of the mill nice jazz; processed to sound a lot older than it is. cariño_sin_condicion-2_Bb-FBE 63. Playing Notes: / - slide up \ - slide down. Testi delle canzoni di Ry Cooder. However, formatting rules can vary widely between applications and fields of interest or study. I found I was fairly good at it in a hamfisted way. Download and buy printable sheet music online at JW Pepper. Paris Texas chords - Ry Cooder • Ry Cooder Sheet music The two of them are tuned in OPEN D : from low to high : D - A - D - F# - A - D Legend : / : slide up \ : slide down : slide rapidly to and fro around the fret All the notes of the second guitar are played with the slide bar, so are the ones played with the first except where indicated. Facebook gives people the power to share and makes. Anthem of the state of Oaxaca. chords Cancion mixteca ver. 4:15 Listen Now $1. Sheet music arranged for Piano/Vocal/Guitar in E Minor. For guitarists, a handy Chord Chart is printed on the back inside cover for all the chords used in the songbook. The purpose of this omission is to provide the student with the opportunity of learning to determine which chord to use at each point of the song, quickly and automatically. His latest album, number 16, is a great collection of blues, country blues, and even a few surprises. Que lejos estoy del suelo donde he nacido! Inmensa nostalgia invade mi pensamiento; Why al ver me tan solo why triste qual hoja al viento,. Someday I'll have money and seems tough to date like you I love you baby, but I hate the way you do Goodbye darling, farewell to you If I drank muddy water, sleep in a hollow log. Lila Downs - La Bruja Lyrics. Genre: Jazz Release Date: 2019-05-03 Explicitness: notExplicit Country: USA Track Count: 11 ℗ 2019 Dancing Cat Records. Me gusta tomar mis copas Aguardiente Full musical transcription for all the mariachi instruments in 4 tone-key transpositions. Un Poco Más #18. Cancion Mixteca by Ry Cooder Tab Different Versions Chords, Tab, Tabs. Antonio RUIZ-PIPO - Cancion y danza no. Flowers in the Dirt (1989) You Want Her Too. I'd rather drink muddy water, sleep in a hollow log and to let you spend my money and treat my like a dog Yes yes yo baby, as one and one is two. Ry Cooder - Cancion mixteca. Cancion Mixteca No Safety Zone Houston In Two Seconds She's Leaving The Bank On The Couch I Knew These People Dark Was The Night Three Chords And The Truth My Name Is Buddy One Cat, One Vote, One Beer Cardboard Avenue Farm Girl There's A Bright Side Somewhere 上へ. "I had to decide if I wanted to be a singer or an actor," Harry Dean Stanton once said. Ry Cooder - Cardboard Avenue. Guitar chords and guitar tablature made easy. Sheets Excerpts Sheets Download. Bound For Canaan (Sieber & Davis) 32. Canción Mixteca. Ritmo de Have you ever seen the Rain de The Creedence. Rose- Ay Te Dejo En San Anto nio- Cancion Mixteca- Dinero-Mathilda- Adios Mexico- She Never Spoke Span ish To Me- Only. Like a worn out record with a mis-punched spindle hole. Paris Texas chords - Ry Cooder • Ry Cooder Sheet music The two of them are tuned in OPEN D : from low to high : D - A - D - F# - A - D Legend : / : slide up \ : slide down : slide rapidly to and fro around the fret All the notes of the second guitar are played with the slide bar, so are the ones played with the first except where indicated. Free printable and easy chords for song by Ry Cooder - Cancion Mixteca. Canta, Canta. She Never Spoke Spanish to Me; 11. Paris, Texas; Theme From Southern Comfort; Theme From Alamo Bay; Across The Borderline; Highway 23; Bomber Bash; Greenhouse; Nice Bike; I Like Your Eyes; Main Theme. Ganges Delta Blues. Cancion Mixteca 4. Shop ry cooder cancion mixteca sheet music, music books, music scores & more at Sheet Music Plus, the World's Largest Selection of Sheet Music. Tabs & Chords. https://play. Wasted Days and Wasted Nights; 14. I'd rather drink muddy water, sleep in a hollow log and to let you spend my money and treat my like a dog Yes yes yo baby, as one and one is two. Listen & view Las Golondrinas lyrics & tabs by Antonio Bribiesca from album Mexicanisimo. Cancion mixteca, Antonio Aguilar: Letra y Acordes de Guitarra. Figure of Eight. Free essays, homework help, flashcards, research papers, book reports, term papers, history, science, politics. chords Cardboard Avenue ver. He added the lyrics in 1915. The gift of life (1990-1993). 1470 Me gusta · 1 personas están hablando de esto. chords Cancion mixteca ver. No Safety Zone Houston in Two Seconds. Apr 01, 2017. 6,515views sep 14, 2016last updated Top tabs. Chords by Jesse Wilson. James Scott composition. Dos Arbolitos. Cancion Mixteca Chords Written, recorded by José López Alavéz and covered by Ry Cooder for the soundtrack to Paris Texas. Cuando Ya No Me Quieras. The bajo sexto, whose precise historical path to the center of south Texas musical life has yet to be determined, is an extraordinary instrument. Blues und Folk. California snow 8. Nothing Out There 4. We are a sole source vendor for our music. Strumming Guide. Ganges Delta Blues. El Mariachi Vargas se fundó en 1898, en el pueblo de Tecalitlán, al sur del estado de Jalisco. College in Texas. Guitar chords; Guitar chords (left handed) Piano chords; Ukulele chords; From: "Paris, Texas sistema silvopastoril asociado: Topics by Science. 1947) is a guitarist, singer and composer from the United States. Rose- Ay Te Dejo En San Anto nio- Cancion Mixteca- Dinero-Mathilda- Adios Mexico- She Never Spoke Span ish To Me- Only. Chordie is a search engine for finding guitar chords and guitar tabs. Chacha Linda. Cielo de Sonora. Everytime I close my eyes I see your face / It feels like I can't let you go / Everytime I lost myself I remember you / When you were my number four. However, formatting rules can vary widely between applications and fields of interest or study. Restless Wind George Winston. RY COODER - CANCION MIXTECA TABS - chords-and-tabs. chords Cardboard. Cancion mixteca 4. Tabs and sheet music search engine. Lyrics to 'Memories' by Jimmy Edward. Learn the full song lyrics at MetroLyrics. Rose of the San Joaquin 3. Houston in Two Seconds 7. riffstation. Cancion Mixteca. My Name Is Buddy 14. La donna è mobile (La mujer es voluble) es un aria de la ópera Rigoletto de Giuseppe Verdi (1851). Lloyd and Michael's Just As God Made Us. Chords Diagrams. Transpose chords: Tablature / Chords Font size: A-A A+. He added the lyrics in 1915. Refer- ences lead from variant titles, from distinctive subtitles, and from other titles associated with the work. s - slide between notes ~ - vibrato * - played without slide. Midi download - midi piano performances. TITLE "Cancion Mixteca" PERFORMER "Ry Cooder" INDEX 00 06:37:32 INDEX 01 06:40:45 TRACK 05 AUDIO TITLE "No Safety Zone" PERFORMER "Ry Cooder" INDEX 00 10:56:15 INDEX 01 10:58:17 TRACK 06 AUDIO TITLE "Houston In Two Seconds" PERFORMER "Ry Cooder" INDEX 00 12:52:22 INDEX 01 12:53:45 TRACK 07 AUDIO TITLE "She's Leaving The Bank" PERFORMER "Ry. Facebook gives people the power to share and makes. Cielito Lindo. Complete Spanish lyrics, music and guitar chords for 60 songs, including: Adios, Adios, Amores · Ay, Ay, Ay · La Bamba · La Paloma · No Me Quieras Tanto · Tu · and more. 4:15 Listen Now $1. Ry Cooder - Wikipedia, the free encyclopedia Biography, appreciation and discography on Wikipedia. Flauta & Chords. Tim Sparks Tim Sparks - Guitar Bazaar Tim Sparks - Neshamah Trad. Canción con Letra, Acordes y Tablaturas para Guitarra. Related News. All-Time Spanish Favorites This item is not available anymore with the seller Di-arezzo Pre-shipment lead time: 3-5 days. Cinematic Piano. Free Mariachi Sheet Music Library This is the Free Mariachi Music Vault for the MACT Project. drive like i never been hurt. She performs her own compositions as well as tapping into Mexican traditional and popular music. La letra es una respuesta a la carta de despedida del Che Guevara, en el momento en que abandonó Cuba. Ay que bonito es volar Y a las dos de la mañana Y a las dos de la mañana Y ay que bonito es volar, ay mama Volar y dejar se caer En l. The cover art has been personally worked on by Ry with Tornado Design- the group behind the distinctive look found on several of Cooder's recent studio albums, as well as Rhino's 2008 anthology, The UFO Has Landed. No Safety Zone 6. bienvenido granda con la sonora matancera 2 a baracoa me voy. But it wasn't all short shows and screaming girls. Paris Texas 2. Chords Ry Cooder Album: Borderline. Donde he nacido. arranged by Ry Cooder” Wikipedia says, the song was written between 1912 and 1915 by Mexican composer José López Alavez. The opening track, It Won’t Be Long Now, was originally performed by writer Frank Stokes. Aprendé a tocar las canciones de Antonio Aguilar con TusAcordes. Conozco a los Dos. Welcome to Mariachi Unlimited! pitches and 3 or 4 chords. Want Me To Do- If That’s What You’re Think ing- Who Were You. Accurate Antonio Aguilar guitar, bass, drum, piano, guitar pro and power tabs at 911Tabs. Key Variations. Ryland "Ry" Peter Cooder (b. Option: "[A MEETING BY THE RIVER is] one of the best settings imaginable for Ry Cooder's laid-back acoustic blues: a 40-minute set of improvisations with Bhatt". My Name Is Buddy 14. Guitar Tabs Universe. I know the tab part is not 100%, but sounds pretty ok'ish, think of it as a base to start on, or to leave out. Just like the island it comes from, this music is a bridge, a doorway between the Southern United States and the West Indies, between the blues, jazz and American pop on onehand and calypso. Note to the student: Although this song may be sung with three chords, it is a rather difficult song to chord. sica la mu or tales, vio a os inm volBoler pre que en durante m tede sie conti nen s de la n uestro das, ante ca eca usi l tres d n de la m europea, e inv asio ican ay iem po amer uen t norte reinó por b ades d bolero s las socie s, aqui una en toda eracana n am os cie latino acion de l e jamás il u recop s boleros q mejo re án. What is a chord progression? 'Chord progression' refers to the sequence of chords used in a musical piece. Subject: RE: Chord Req: Cancion Mixteca chords required From: M. Canción Mixteca Uke tab by José López Alavés. ISBN 1495031233. Corrido a Monterrey. Cancion mixteca 4. I tried to accompany her on electric guitar for a show in Long Beach. Dos Arbolitos. Anthem of the state of Oaxaca. Not your average fake book! Great for musicians, camps, teachers or for singing with family and friends. arranged by Ry Cooder" Wikipedia says, the song was written between 1912. Don't Get Around Much Anymore. Cancion Mixteca. Ana Lila Downs Sánchez, best known as Lila Downs (born September 9, 1968) is a Mexican singer-songwriter. cangrejito_playero 59. A singer-songwriter and record producer, she is better known as a definitive interpreter of. Nothing Out There. Study And Relax. Flowers in the Dirt (1989) You Want Her Too. Josh Woodward's MP3 Music Collection - All Songs. arranged by Ry Cooder” Wikipedia says, the song was written between 1912 and 1915 by Mexican composer José López Alavez. Baby What You Want Me to Do; 15. Tabs, letra y acordes de 'Cancion mixteca' por Antonio Aguilar SOL Que lejos estoy del suelo, RE7 donde he nacido, inmensa nostalgia invade, SOL mi pensamiento. @ 320 kbps + covers Este es uno de los proyectos musicales mas arriesgados que surgió hace unos años entre músicos mexicanos y españoles. Flauta & Chords. Written, recorded by José López Alavéz and covered by Ry Cooder for the soundtrack to Paris Texas. Houston in Two Seconds 7. Cuando Escuches Este Vals. Ry Cooder did a superb version for "Paris Texas" on which I have. Gepost door John Burrows op 07:00. A touch of evil 10. Ry Cooder - Chan Chan. tabs Cancion mixteca ver. Similar requests. net Show all chords diagrams; Change chords diagrams. Canción con Letra, Acordes y Tablaturas para Guitarra. Play Advices. Agua de Rosas #12. My thanks, as always, to our resident DJ and music expert Scott Eastlick for coming through with such an evocative mix of tracks and genres. SKU: MN0171868. 000 pistas en todos los tonos. Canción Mixteca. One Chord Mar Vei 0YGRJ8g9RDYRrrRq2WuOPC Got It Tyrece Siplin G. ry cooder - cancion mixteca (chords) (0/5) 2014-04-08 : 570: ry cooder - chinito chinito (lyrics) (0/5) 2012-11-06 : 94: ry cooder - dark end of the street (lyrics) (0/5) 2012-11-06 : 738: ry cooder - dark is the night (guitar tab) (0/5) 2012-11-11 : 359: ry cooder - down in the boondocks (lyrics) (0/5) 2012-11-06 : 238: ry cooder - eugenes. pdf), Text File (. Ain't That a Shame. Tell me about an album that you adore that you think more people should listen to. A Meeting by the River; 2. This sold-out performance was Mastodon's first show at the legendary Brixton venue. Cartas Marcadas. Guitar chords; Guitar chords (left handed) Piano chords; Ukulele chords; From: "Paris, Texas sistema silvopastoril asociado: Topics by Science. Paris Texas 2. more tracks from the album The Very Best of Lila Downs #2. Cancion Mixteca by Ry Cooder on Paris, Texas (WEA France) 4:16 Listen Now $1. Songs: El Rey. She's About a Mover; 19. I know the tab part is not 100%, but sounds pretty ok'ish, think of it as a base to start on, or to leave out. : D, A7, G, A. Available Space 3. Profile for Number Six. Cancion Mixteca. [2] [3] La composición musical se atribuye oficialmente a José Fernández Díaz, más conocido como Joseíto. About Us We believe everything in the internet must. Someday I'll have money and seems tough to date like you I love you baby, but I hate the way you do Goodbye darling, farewell to you If I drank muddy water, sleep in a hollow log. I'd rather drink muddy water, sleep in a hollow log and to let you spend my money and treat my like a dog Yes yes yo baby, as one and one is two. At Mariachi Unlimited we take pride in what we have to offer. 5x10 inches. Ryland "Ry" Peter Cooder (b. (Блюз, слайд гитара) Ry Cooder, избранная подборка, 1972-2007г. She's Leaving the Bank. On the Couch 9. Kalinchita los 100 mejores boleros 1. Canción con Letra, Acordes y Tablaturas para Guitarra. "I had to decide if I wanted to be a singer or an actor," Harry Dean Stanton once said. Search Search Los Lobos - Cancion del Mariachi acoustic guitar solo tab - free dowload in PDF and Guitar Pro formats. 161 times played , Duration - 3 minutes & 53 seconds. So you can Hold Your Own Part in a Vocal Group or Choir. / Ry Cooder / etc). 3 tabs: 3. -----Canción Mixteca Ry Cooder-----Tabbed by: maguri Tuning: Standard Ry Cooder (vocal: Harry Dean Stanton) Canción Mixteca (1984) On the album the song is credited Trad. Tabs & Chords. Linda Marie Ronstadt (born July 15, 1946 in Tucson, Arizona) is an American popular vocalist who as earned multiple Grammy Awards, numerous multi-platinum albums, an Emmy Award, and a Tony Award nomination. [2] [3] La composición musical se atribuye oficialmente a José Fernández Díaz, más conocido como Joseíto. Lila Downs cifras, letras, tablaturas e videoaulas das músicas no Cifra Club. 000 sheet music, tabs and chords for you to play. Danzas Espanolas. Guitar chords and guitar tablature made easy. Tim Sparks Theolinious Monk - Monk's Mood ,Arr. Land of the sun, I sigh to see you so far away Now, So far away, I live without light, Without love C/B = X20010 And if you, like this, use this, copy this, hate this, take time to ** RATE THIS ** Thanks, flatwound CANCION MIXTECA * ** CAPO 2nd FRET ** * G G D7 Que lejos estoy del suelo, Donde he nacido D7 G Inmensa nostalgia invade, Mi. En español. I've started playing basslines on solo stuff and on some of The Fountain. Cancion_mixteca Historia_de_un_amor Misguided Only_gets_better Sabor_a_mi Someplace_far_away_from_here Wishin_for_rain Talking to the river - All Lyrics. "I was always singing. This special 180-gram vinyl pressing is the only physical version of this special show and includes a DVD of the entire performance. "Cancion Mixteca," which appears in Paris, Texas during a nostalgic montage, is a lament for Southern Mexico, composed a hundred years ago by a homesick José López Alvarez. "Cancion Mixteca" is a Mexican folk song written by Oaxacan composer José López Alavez in 1912. Cancion Mixteca. drive like i never been hurt. Free printable and easy chords for song by Ry Cooder - Cancion Mixteca. Que Llueva Cerca del Mar (CHORDS USED D, G, C, A) Cerca del mar. Arranged for beginning-level mariachi with solo voice in a. Welcome to Mariachi Unlimited! Quality sheet music for the school mariachi since 1990. The problem is that either of two different chords sounds fine in many places, and it appears that either one will work. Canción Mixteca 5. Set Price 78 rpm Record Sale It's time to thin out my collection and am offering the following records for sale. Las Golondrinas. P Houston Texas The following summarizes the principal fac. Tabs, letra y acordes de 'Cancion mixteca' por Antonio Aguilar SOL Que lejos estoy del suelo, RE7 donde he nacido, inmensa nostalgia invade, SOL mi pensamiento. COVID-19 Resources. Money Honey Cancion Mixteca 30. Rose- Ay Te Dejo En San Anto nio- Cancion Mixteca- Dinero-Mathilda- Adios Mexico- She Never Spoke Span ish To Me- Only. Analysis of the chord has been the subject of considerable debate, [16] with it being described as G7add9sus4, [17] G7sus4, [18] [19] or G11sus4 [13] and others below. (Блюз, слайд гитара) Ry Cooder, избранная подборка, 1972-2007г. Chords & Tabs: PowerTab: GuitarPro: Archies funeral Across The Borderline Across The Borderline Cancion Mixteca Cancion Mixteca Brothers Dark was the night Dark was the night Feeling bad Blues Great dream from heaven Great dream from heaven Hold on to gods unchanging hand Houston in two seconds Houston in two seconds How can you keep on moving. A La Nanita Nana (Hear Lullabies And Sleep Now). Chords for Canción Mixteca. Lloyd and Michael's Just As God Made Us. Un Poco Más #18. Tim Sparks PETER ILICH Tchaikovsky - Nutcracker Suite ,Arr. On the Couch. Cancion Mixteca Chords by Antonio Aguilar Learn to play guitar by chord and tabs and use our crd diagrams, transpose the key and more. Download and buy printable sheet music online at JW Pepper. Mississippi River Blues is a wonderful way to spend an evening listening to great music being played by a top notch performer. Canción Mixteca 33 23 23_22 22_23 23 22 20 32 y rasgueo en Sol M SOL M Que lejos estoy del suelo, RE 7 donde he nacido, inmensa nostalgia invade, SOL M mi pensamiento. Find Glenn Ohrlin song information on AllMusic. Series: Vocal. Durante los años alrededor de la II Guerra Mundial, éxitos grabados por grupos vocales negros como The Ink Spots y The Mills Brothers junto con grupos de espirituales, formaron el precedente más influyente para el genero doo wop. But Stanton inhabits it as naturally as if it were written about Central Kentucky. 204 Madera St. [A E G D Bm C] Chords for Harry Dean Stanton - "Cancion Mixteca" - Access All Areas with capo transposer, play along with guitar, piano, ukulele & mandolin. Arranged for beginning-level mariachi with solo voice in a. Anthem of the state of Oaxaca. Ry Cooder's Ry Cooder - Crazy 'bout An Automobile Lyrics music video in high definition. Mississippi River Blues is a wonderful way to spend an evening listening to great music being played by a top notch performer. Chords and tabs for Canciones Populares - Este es un glosario de acordes completo, alimentado por la comunidad y constante mente revisado para aseguramiento de la calidad. Partituras de Las Mañanitas de México por Consuelo Velázquez. – Rafe Arnott. Confidencias de Amor. Aprenda a tocar essa música usando as cifras, tablaturas e versão simplificada com o Cifras. Canción Mixteca tablatura ukulele de José López Alavés, uke tab y acordes gratis. Cancion mixteca - Jose Lopes Alvarez; Cancion del jinete - Letra: Federico Garcia Lorca / Musica: Manuel. Cancion Mixteca 4. I found some tab for this Ry Cooder arrangement of Cancion Mixteca in standard tuning, but I think this guy's version is even better. Ry Cooder had well established himself as an instrumentalist, songwriter, bandleader, and session musician when he added another title to his résumé in 1980: film composer. y como la luna, la brisa y la espuma. bannermusiciansfriend. Chords by Jesse Wilson. Just your run of the mill nice jazz; processed to sound a lot older than it is. My Name Is Buddy 14. Mathilda; 9. GYMNOPEDIE No 1 for Guitar Quartet. Here are the most popular versions Guitar tabs, Chords, Ukulele chords. Listen & view Las Golondrinas lyrics & tabs by Antonio Bribiesca from album Mexicanisimo. Texas Tornados (1990) Who Were You Thinking Of (Hey Baby) Que Paso Laredo Rose A Man Can Cry Soy de San Luis Adios Mexico If That's What You're Thinking Texas Tornados:She Never Spoke Spanish to Me Dinero Baby! Heaven Sent Me You Zone of Our Own (1991) Is Anybody Goin' to San Antone La Mucura Bailando I'm Not That Kat Anymore Oh Holy One He Is a Tejano El Pantalon Blue Jean Just Can't Fake It. Bound For Canaan (Sieber & Davis) Ry Cooder feat. Partituras PDF y MIDI para Clarinete aquí Partituras gratis en jpg de Clarinete en Si bemol para disfrutar tocando Partituras de todos los géneros, jazz, clásico, banda sonora, populares, tradicionales, infantilespara tocar con tu clarinete. Mariachi Curriculum Resources. So you can Hold Your Own Part in a Vocal Group or Choir. Version: Length: Title: Label Number: Format Medium: Date: 5:02: My Name Is Buddy: Nonesuch 7559-79961-2: Album CD: 2007-03-02. I know the tab part is not 100%, but sounds pretty ok'ish, think of it as a base to start on, or to leave out. cuarteto machin 3 a brochazos. Karaoke Profesional. Tabs for Ry Cooder - Cancion mixteca----- Canción Mixteca - Ry Cooder ----- Tabbed by: maguri Tuning: Standard Ry Cooder (vocal: Harry Dean Stanton) Canción Mixteca (1984) On the album the song is credited "Trad. Dit e-mailen Dit bloggen! Delen op Twitter Delen op The Chords (1) The Coasters (4) The. Consentida. Y al verme tan solo y triste. Print and download in PDF or MIDI Canción mixteca. The Eyes Of Texas/Deep In The Heart Of Texas La Rubia Y La Morena -Canción-Polka (The Blonde And The Brunette) La Rubia Y La Morena -Canción-Polka (The Blonde And The Brunette. Cancion Mixteca by Ry Cooder on Paris, Texas (WEA France) 4:16 Listen Now $1. Bound For Canaan (Sieber & Davis) 32. Cartas a Eufemia. I Knew These People 10. Cancion a Victor Cancion Mixteca Canned Goods Carey Carry On A Case Of You Casimir Pulaski Day Cassiopeia Cat's In The Cradle Catch A Falling Star Cecilia Chapel Of Love. On the Couch. [A E D Bm Ab] Chords for Ry Cooder Cancion Mixteca with capo transposer, play along with guitar, piano, ukulele & mandolin. Subject: RE: Chord Req: Cancion Mixteca chords required From: M. Partituras de Las Mañanitas de México por Consuelo Velázquez. Dos Arbolitos. Bound For Canaan (Sieber & Davis) 32. «Guantanamera» es una conocida canción popular cubana. La Cumbia del Mole #14. MP3, 320 kbps » Зарубежный блюз (lossy) :: RuTracker. The opening track, It Won't Be Long Now, was originally performed by writer Frank Stokes. Arriving at a time of socio-political tumult in America, George Winston’s Restless Wind stirs up a storm of unbridled emotions. tabs Cancion mixteca ver. Paris, Texas; Theme From Southern Comfort; Theme From Alamo Bay; Across The Borderline; Highway 23; Bomber Bash; Greenhouse; Nice Bike; I Like Your Eyes; Main Theme. Partituras PDF y MIDI para Clarinete aquí Partituras gratis en jpg de Clarinete en Si bemol para disfrutar tocando Partituras de todos los géneros, jazz, clásico, banda sonora, populares, tradicionales, infantilespara tocar con tu clarinete. Ry Cooder Sheet music for Available Space with acoustic guitar Jellynote, 400. James Scott composition. We are a sole source vendor for our music. Moby - Long Ambients: Calm/Sleep Over the last couple of years I've been making really really really quiet music to listen to when I do yoga or sleep or meditate or panic. Miguel Cancion Mixteca. De colores. Dark Was The Night. However, it appears he is not playing in standard tuning. Chacha Linda. Baby What You Want Me to Do; 15. Add to favorites. Un Poco Más #18. luis diaz y orquesta tipica brunswick. Cartas a Eufemia. JW Pepper ® is your sheet music store for band, orchestra and choral music, piano sheet music, worship songs, songbooks and more. arranged by Ry Cooder" Wikipedia says, the song was written between 1912 and 1915 by Mexican composer José López Alavez. [A E G D Bm C] Chords for Harry Dean Stanton - "Cancion Mixteca" - Access All Areas with capo transposer, play along with guitar, piano, ukulele & mandolin. bonita_finca_de_adobe 55. SOL SOL Que lejos estoy del suelo, RE RE. Posted by UncleJack, written by Jose Lopez Alavez 2 people like this - Play count: 104. TITLE "Cancion Mixteca" PERFORMER "Ry Cooder" INDEX 00 06:37:32 INDEX 01 06:40:45 TRACK 05 AUDIO TITLE "No Safety Zone" PERFORMER "Ry Cooder" INDEX 00 10:56:15 INDEX 01 10:58:17 TRACK 06 AUDIO TITLE "Houston In Two Seconds" PERFORMER "Ry Cooder" INDEX 00 12:52:22 INDEX 01 12:53:45 TRACK 07 AUDIO TITLE "She's Leaving The Bank" PERFORMER "Ry. Rosso che manca di sera 7. luis diaz y orquesta tipica brunswick. Nov 17, 2019 - 3:29:04 PM DBChimer. Canción Mixteca. 1 item available. ----- Canción Mixteca - Ry Cooder (vocal: Harry Dean Stanton) ----- Written by: On the album the song is credited "Trad. With more and more of us keeping to ourselves during these difficult health circumstances, what better way to spend some alone time than with a high-quality music mix based on an all-analog song set. Anthem of the state of Oaxaca. Cancion Mixteca 4. Note: Citations are based on reference standards. Guitar Tabs Universe. Here is the MIDI to m4a (AAC) version of the arrangement: Cancion Mixteca Tim just had repeated B's in the bass of his version for the first three measures, and just the skeleton of the G major chords. Tabs and sheet music search engine. Cancion Mixteca 4. Y al verme tan solo y triste. She began singing ranchera music at an early age, and later sang at the fiestas of the towns in her mountain region, la Mixteca. Download or order Cancion Mixteca sheet music by Jose Lopez Alavez arranged for piano and guitar and voice. Ted Date: 17 Feb 04 - 12:07 PM Ry Cooder would be better--I am sorry that I don't have time to count all the measures it out, Big Daddy, but the song is actually really easy to play--here is a kind of rough outline of the way the chords go, but it you''ll really have to sit down and fine tune it yourself. El ritmo de Have you ever seen the Rain de la Creedence es muy sencillo. Guitar tabs for Cancion Mixteca by Ry Cooder. Format : Score Langue : English. This page is dedicated to Harry Dean Stanton. Los Texmaniacs founder Max Baca is a renowned innovator on the bajo sexto, a twelve-string Mexican guitar, which customarily provides rhythm accompaniment for the button accordion. Blues und Folk. 161 times played , Duration - 3 minutes & 53 seconds. Lila Downs - La Bruja Lyrics. arranged by Ry Cooder Wikipedia says, the song was written between 1912 and 1915 by Mexican composer José. Las Mañanitas. Farm Girl Ry Cooder. Nov 17, 2019 - 3:29:04 PM DBChimer. La guitarra acústica de la versión original (que se muestra en el video de abajo) está haciendo lo que en el Método GC llamamos el ritmo del Tren Corto o Lento (Shuku-Shuku). 04 - Cancion Mixteca: 05 - No Safety Zone: 06 - Houston In Two Seconds: 07 - She's Leaving The Bank: 08 - On The Couch: 09 - I Knew These People: 10 - Dark Was The Night:. Buscá letras y acordes de canciones en múltiples sitios a la vez. chords Cancion mixteca ver. 4:15 Listen Now $1. Numerous and frequently-updated resource results are available from this WorldCat. Aquí lo que hicieron fue recopilar textos y poemas de diversos autores y musicalizarlos o en su defecto, crear o. Josh Woodward's MP3 Music Collection - All Songs. Our awesome collection of. Find the best version for your choice. Dink's Song (1904) / Fare Thee Well (1942) John A. When Sinatra played Juarez 9. Here is a very popular, up-tempo ranchera polkeada (rancher's song with a polka beat) by one of Mexico's most famed and well-loved mariachi composers. Confidencias de Amor. com/watch?v=hmd-tFUub7M FA, SOL, LA SOL, LA, SOL, FA, SOL, DO’ SIB, LA, FA, RE, DO MI, SOL, SOL, LA. cancion mixteca cancion pendeja -banda real cangrejito playero caÑazo colombiano cara a la muerte- gerard ortiz caray-banda la chacaloza caricatura- banda san miguel carita de perdon carmelita carnavelita carta a esther catarino y los rurales cecilia celos - original del sol cerca del mar cerezo rosas cerveza - banda cuisillos charamambo. Ry Cooder did a superb version for "Paris Texas" on which I have. Please check back often. cangrejito_playero 60. Gallo del cielo Disc 2: 1. sica la mu or tales, vio a os inm volBoler pre que en durante m tede sie conti nen s de la n uestro das, ante ca eca usi l tres d n de la m europea, e inv asio ican ay iem po amer uen t norte reinó por b ades d bolero s las socie s, aqui una en toda eracana n am os cie latino acion de l e jamás il u recop s boleros q mejo re án. Item Number: HL. Be My Husband 10. Thanks, izope! :-) Night In Venice. Durante los años alrededor de la II Guerra Mundial, éxitos grabados por grupos vocales negros como The Ink Spots y The Mills Brothers junto con grupos de espirituales, formaron el precedente más influyente para el genero doo wop. 03 Carter's Chord Different Breed. Houston in Two Seconds 7. This songbook is a treasure trove of well-loved songs from blues, country, jazz and Motown to composed folk, traditional ballads, gospel and rounds. One Cat, One Vote, One Beer 15. Mama never forgets her birds (1990) Baby song of the four winds (1994) Recovering (2000) Guru (1995) Poet's aria from Tight-rope (1985). Canción Mixteca 5. Cancion Mixteca. La noche azul, noche tropical. Tenney, to spend an 11-week period as artist-in-residence. Size: 1,595kb, uploaded 11/17/2019 8:24:16 AM Genre:. Cancion mixteca - Jose Lopes Alvarez; Cancion del jinete - Letra: Federico Garcia Lorca / Musica: Manuel. See more ideas about Ry cooder, Slide guitar and Music. yo me enamoré. Cuando Ya No Me Quieras. No Safety Zone Houston in Two Seconds. On the Couch 9. com for lyrics] Keen Robert Earl Chords: Keen Robert Earl Chords. Josh Woodward's MP3 Music Collection - All Songs. "I had to decide if I wanted to be a singer or an actor," Harry Dean Stanton once said. Paris Texas. Cartas Marcadas. TITLE "Cancion Mixteca" PERFORMER "Ry Cooder" INDEX 00 06:37:32 INDEX 01 06:40:45 TRACK 05 AUDIO TITLE "No Safety Zone" PERFORMER "Ry Cooder" INDEX 00 10:56:15 INDEX 01 10:58:17 TRACK 06 AUDIO TITLE "Houston In Two Seconds" PERFORMER "Ry Cooder" INDEX 00 12:52:22 INDEX 01 12:53:45 TRACK 07 AUDIO TITLE "She's Leaving The Bank" PERFORMER "Ry. Ryland "Ry" Peter Cooder (b. No Safety Zone. Guitar Tabs Universe. [2] [3] La composición musical se atribuye oficialmente a José Fernández Díaz, más conocido como Joseíto. Learn to play guitar by chord / tabs using chord diagrams, transpose the key, watch video lessons and much more. Cinematic Piano. SKU: MN0171868. See more ideas about Ry cooder, Slide guitar and Music. Ay que bonito es volar Y a las dos de la mañana Y a las dos de la mañana Y ay que bonito es volar, ay mama Volar y dejar se caer En l. Cancion Mixteca chords by Ry Cooder with chords drawings, easy version, 12 key variations and much more. Jazz Lounge/Relax. La noche azul, noche tropical. The 77's - Denomination Blues chords lyrics cancion mixteca. Just like the island it comes from, this music is a bridge, a doorway between the Southern United States and the West Indies, between the blues, jazz and American pop on onehand and calypso. “Rise Again Songbook” is a user friendly collection that appeals to a wide musical palate, with a mission of motivating all kinds of people to get together and sing, building bonds of humanity. tabs Cancion mixteca ver. Mississippi River Blues is a wonderful way to spend an evening listening to great music being played by a top notch performer. Dark Was The Night. Moby - Long Ambients: Calm/Sleep Over the last couple of years I've been making really really really quiet music to listen to when I do yoga or sleep or meditate or panic. 000 pistas en todos los tonos. La Llorona #7. Questo sito utilizza cookies di profilazione di terze parti per migliorare la tua navigazione. Ry Cooder – Cancion Mixteca chords. Shop cancion mixteca sheet music, music books, music scores & more at Sheet Music Plus, the World's Largest Selection of Sheet Music. Available Space 3. The Chieftains song lyrics collection. Consentida. com - Acordes, Letras y Tabs » Antonio Aguilar » Cancion mixteca Cancion mixteca. I ended up with 4 hours of music and have decided to give it away. Antonio Aguilar - Canción mixteca Tabs & Lyrics : Que lejos estoy del cielo donde he nacido inmensa nostalgia invade mi pensamiento al verme tan solo y triste cual hoja el viento Quisiera volar quisiera morir de sentimiento ¡oh tierra del sol! suspiro por verte ahora que lejos yo vivo sin luz, sin amor y al verme tan solo y triste cual hoja al viento quisiera volar quisiera morir de sentimiento. Cancion Mixteca by Ry Cooder Tab Different Versions Chords, Tab, Tabs. Y al verme tan solo y triste. Dink's Song (1904) / Fare Thee Well (1942) John A. In topics: Cancion Mixteca (trad. Everytime I close my eyes I see your face It feels like I can't let you go Everytime I lost myself I remember you When you were my number four Everytime I close my eyes I can't belive is true That someone like you can love me too If I could see you once more I would catch you in my song Oh my boy you get me wrong You get me wrong Everytime I close my eyes I see your face It feels like I can't. Agua de Rosas #12. Genre: Jazz Release Date: 2019-05-03 Explicitness: notExplicit Country: USA Track Count: 11 ℗ 2019 Dancing Cat Records. Jazz Lounge/Relax. She began singing ranchera music at an early age, and later sang at the fiestas of the towns in her mountain region, la Mixteca. Pedro Infante - Cielito Lindo (Letras y canción para escuchar) - Ay, ay, ay, ay / Canta y no llores / Porque cantando se alegran, cielito lindo, los corazones. Corrido a Monterrey. SOL 7 Al verme tan solo y triste, DO M cual hoja al viento, SOL M quisiera llorar, RE 7 SOL M quisiera morir, de sentimiento. Cancion Mixteca by Ry Cooder on Paris, Texas (WEA France) 4:16 Listen Now $1. Cielito lindo de Mexicano, letra de la canción con el video. Accurate Canciones Populares guitar, bass, drum, piano, guitar pro and power tabs at 911Tabs. Chords Ry Cooder Album: Bop Till You Drop. 1947) is a guitarist, singer and composer from the United States. How Can A Poor Man Stand Such Times And Live 2. Pistas Profesionales con instrumentos reales y coros, más de 60. The gift of life (1990-1993). She has recorded over 30 studio albums and has made guest appearances on over 100 other albums. feelin' bad blues. Verse: G C D (repeat) Holiness (Holiness Cancion Mixteca. Profile for Number Six. ese lunar q. Aceves Mejia, Miguel Que Bonita Es Mi Tierra. Cancion Mixteca; 7. La donna è mobile (La mujer es voluble) es un aria de la ópera Rigoletto de Giuseppe Verdi (1851). I've started playing basslines on solo stuff and on some of The Fountain. The dogs bark, but the caravan. chords Cardboard. All-Time Spanish Favorites Complete Spanish lyrics, music and guitar chords for 60 songs / Melody Line, Lyrics & Chords / 80 / 2009 / 2009 Cancion Mixteca. Facebook gives people the power to share and makes. Longing; $0. The most authentic and useful solo guitar arrangements on the web. Cielo Rojo #16. But it wasn't all short shows and screaming girls. Printed 11/5/2011 Page 1 of 949. Complete Spanish lyrics, music and guitar chords for 60 songs, including: Adios, Adios, Amores · Ay, Ay, Ay · La Bamba · La Paloma · No Me Quieras Tanto · Tu · and more. Texas Tornados (1990) Who Were You Thinking Of (Hey Baby) Que Paso Laredo Rose A Man Can Cry Soy de San Luis Adios Mexico If That's What You're Thinking Texas Tornados:She Never Spoke Spanish to Me Dinero Baby! Heaven Sent Me You Zone of Our Own (1991) Is Anybody Goin' to San Antone La Mucura Bailando I'm Not That Kat Anymore Oh Holy One He Is a Tejano El Pantalon Blue Jean Just Can't Fake It. When Sinatra played Juarez 9. Aceves Mejia, Miguel Que Bonita Es Mi Tierra. IM: I wrote most of this batch on a bass guitar that kind of didn't need an app. Delivering music since 1876. The gift of life (1990-1993). Cielito lindo de Mexicano, letra de la canción con el video. Canción Mixteca Uke tab by José López Alavés. Cancion Mixteca No Safety Zone Houston In Two Seconds She's Leaving The Bank On The Couch I Knew These People Dark Was The Night Three Chords And The Truth My Name Is Buddy One Cat, One Vote, One Beer Cardboard Avenue Farm Girl There's A Bright Side Somewhere 上へ. Anthem of the state of Oaxaca. (I've got every Nilsson album - and there's some great material in there. Mathilda; 9. Por parte de México participaron Juan Pablo Villa y los de Cabezas De Cera y por parte de España estuvieron Refree y Silvia Pérez Cruz. arranged by Ry Cooder Wikipedia says, the song was written between 1912 and 1915 by Mexican composer José. La Llorona #7. Chords and tabs for Canciones Populares - Este es un glosario de acordes completo, alimentado por la comunidad y constante mente revisado para aseguramiento de la calidad. Tracklisting: 1. Clásico Mexicano - Cancion mixteca (Karaoteca. Houston in Two Seconds 7. Paris Texas (1985) 1. Tabs & Chords. Complete Spanish lyrics, music and guitar chords for 60 songs, including: Adios, Adios, Amores · Ay, Ay, Ay · La Bamba · La Paloma · No Me Quieras Tanto · Tu · and more. Shop cancion mixteca sheet music, music books, music scores & more at Sheet Music Plus, the World's Largest Selection of Sheet Music. Long Tall Sally During Long Tall Sally a young audience member, Brent McCausland, leapt up on the stage and shook Lennon's hand. I Owe It All to You. Partituras PDF y MIDI para Clarinete aquí Partituras gratis en jpg de Clarinete en Si bemol para disfrutar tocando Partituras de todos los géneros, jazz, clásico, banda sonora, populares, tradicionales, infantilespara tocar con tu clarinete. Echarle a uno el muerto La expresión echar el muerto y sus variantes echar el muerto a casa, a puerta ajena o al vecino, se utilizan comúnmente para imputar a un tercero la culpa de lo que no ha hecho. Canción Mixteca tablatura ukulele de José López Alavés, uke tab y acordes gratis. Antonio RUIZ-PIPO - Cancion y danza no. Accurate Canciones Populares guitar, bass, drum, piano, guitar pro and power tabs at 911Tabs. Canción mixteca, Canciones Populares: Letra y Acordes de Guitarra. Acordes y tablatura de Canción mixteca (Canciones Populares), partitura y cifrado americano, los mejores acordes para guitarra y piano de 'Canción mixteca' de Canciones Populares. Licensed to Steve Alexander. Ry Cooder (1970) Alimony France Chance One Meat Ball Do Re Mi My Old Kentucky Home (Turpentine & Dandelion Wine) How Can A Poor Man Stand Such Times And Live? Available Space Pigmeat Police Dog Blues Goin' To Brownsville Dark Is The Night Into the Purple Valley (1971) How Can You Keep Moving. There will be more to come as there are a few thousand duplicates/extras to go through. Tracklisting: 1. I ended up with 4 hours of music and have decided to give it away. Find the best version for your choice. 204 Madera St. In Northern California in the summer of 1957, the Valenzuela family, including mother Connie, sixteen-year-old son Richie, and two young daughters, are working as migrant workers on an apricot farm when Bob Morales, Richie's older half-brother, arrives on his motorcycle. Paris Texas. En español. Ryland "Ry" Peter Cooder (b. De colores. Chords ratings, diagrams and lyrics. Profile for Number Six. Who Were You Thinkin' Of; 17. Paris Texas 2. [A E D Bm Ab] Chords for Ry Cooder Cancion Mixteca with capo transposer, play along with guitar, piano, ukulele & mandolin. For more difficult songs, I indicate some of the chords, and for some songs, I provide chords for the entire song. Also recorded by Irish singer James Kilbane, Daniel O'Donnell with Susan Boyle as a duet, Tommy Flemming, Moira Crawley and Patrick Feeney. Each work is de- scribed in a main entry which includes informa- tion pertinent to the copyright claim. Thanks, izope! :-) Night In Venice. Welcome to Mariachi Unlimited! pitches and 3 or 4 chords. Paris Texas (1985) 1. Traversing the historical landscape of the country's troubled past while grappling with its raging present, Winston's 15 th solo piano album is full of instrumental contradictions, often reflective and tender, but also occasionally wild and adventurous.